Bird.Box.2018.720p.WEBRip.x264.LLG

  • Category Movies
  • Type HD
  • Language English
  • Total size 1.4 GB
  • Uploaded By LifeLongg
  • Downloads 1539
  • Last checked 31 minutes ago
  • Date uploaded 18 hours ago
  • Seeders 186
  • Leechers 184

Bird Box

ThrillerDramaScience FictionHorror

A woman and a pair of children are blindfolded and make their way through a post-apocalyptic setting along a river.

Infohash : 00086EDDCDAE2B444EE0034A9EB7565E161DE896

Quote:




******************************Thumbnail:**********************



******************************Screenshots:********************

Screenshot 1

Screenshot 2

Screenshot 3

Screenshot 4

Screenshot 5

Screenshot 6

Screenshot 7

Screenshot 8

Screenshot 9

Screenshot 0

******************************************************

Bird.Box.2018.720p.WEBRip.x264.LLG.mp4
Format : MPEG-4
Format profile : Base Media
Codec ID : isom (isom/iso2/avc1/mp41)
File size : 1.38 GiB
Duration : 2 h 3 min
Overall bit rate mode : Variable
Overall bit rate : 1 598 kb/s
Writing application : Lavf57.83.100

Video
ID : 1
Format : AVC
Format/Info : Advanced Video Codec
Format profile : [email protected]
Format settings : CABAC / 1 Ref Frames
Format settings, CABAC : Yes
Format settings, RefFrames : 1 frame
Codec ID : avc1
Codec ID/Info : Advanced Video Coding
Duration : 2 h 3 min
Bit rate mode : Variable
Bit rate : 1 465 kb/s
Maximum bit rate : 4 500 kb/s
Width : 1 280 pixels
Height : 532 pixels
Display aspect ratio : 2.40:1
Original display aspect ratio : 2.40:1
Frame rate mode : Constant
Frame rate : 24.000 FPS
Color space : YUV
Chroma subsampling : 4:2:0
Bit depth : 8 bits
Scan type : Progressive
Bits/(Pixel*Frame) : 0.090
Stream size : 1.27 GiB (92%)
Codec configuration box : avcC

Audio
ID : 2
Format : AAC LC
Codec ID : mp4a-40-2
Duration : 2 h 3 min
Bit rate mode : Constant
Bit rate : 128 kb/s
Channel(s) : 2 channels
Channel layout : L R
Sampling rate : 48.0 kHz
Frame rate : 46.875 FPS (1024 SPF)
Compression mode : Lossy
Stream size : 114 MiB (8%)
Default : Yes
Alternate group : 1



********************************************************


Files:

Bird.Box.2018.720p.WEBRip.x264.LLG
  • SAMPLE.mp4 (9.1 MB)
  • Bird.Box.2018.720p.WEBRip.x264.LLG.mp4 (1.4 GB)

There are currently no comments. Feel free to leave one :)

Code:

  • udp://tracker.openbittorrent.com:80/announce
  • udp://tracker.opentrackr.org:1337/announce
  • UDP://TRACKER.LEECHERS-PARADISE.ORG:6969/ANNOUNCE
  • UDP://TRACKER.COPPERSURFER.TK:6969/ANNOUNCE
  • UDP://TRACKER.OPENTRACKR.ORG:1337/ANNOUNCE
  • UDP://TRACKER.ZER0DAY.TO:1337/ANNOUNCE
  • UDP://EDDIE4.NL:6969/ANNOUNCE